Containment S01E09 HDTV x264-LOL[rartv]

seeders: 11
leechers: 7
updated:
Added by z0n3212.58M in TV
Torrent verified. Downloaded 2,094 times.

DownloadFast Safe Anonymous
movies, software, shows...
  • View all Containment episodes
  • Episode title: A Kingdom Divided Against Itself
  • Episode: S01E09
  • Air date: 21 June 2016
  • IMDb link: 4421578
  • TVmaze link: Containment
  • Original run: 01 January 2016 — Present
  • Summary:

    The series follows an epidemic that breaks out in Atlanta, leaving the large city quarantined and those stuck on the inside fighting for their lives. The drama tells the story of loved ones torn apart, and how the society that grows inside the cordon reveals both the devolution of humanity and the birth of unlikely heroes.

    Written by Rocky_45122.18K
Available in versions: 1080p720p480pHDTVWEBRipx264x265
Containment S01E09 HDTV x264-LOL[rartv] (Size: 286.43 MB)
  rarbg.com.txt 34 bytes
  containment.109.hdtv-lol.mkv 286.43 MB
  containment.109.hdtv-lol.nfo 4.26 KB

Description


http://rarbg.to
Containment.S01E09.HDTV.x264-LOL[rartv]

image
Screens :

image
Mediainfo :

Video
ID : 1
Format : AVC
Format/Info : Advanced Video Codec
Format profile : [email protected]
Format settings, CABAC : Yes
Format settings, ReFrames : 5 frames
Codec ID : V_MPEG4/ISO/AVC
Duration : 42mn 31s
Bit rate : 820 Kbps
Width : 720 pixels
Height : 404 pixels
Display aspect ratio : 16:9
Frame rate mode : Constant
Frame rate : 23.976 (24000/1001) fps
Color space : YUV
Chroma subsampling : 4:2:0
Bit depth : 8 bits
Scan type : Progressive
Bits/(Pixel*Frame) : 0.118
Stream size : 249 MiB (87%)
Writing library : x264 core 148 r2705 3f5ed56
Encoding settings : cabac=1 / ref=5 / deblock=1:1:1 / analyse=0x3:0x133 / me=umh / subme=9 / psy=1 / psy_rd=1.00:0.00 / mixed_ref=1 / me_range=16 / chroma_me=1 / trellis=2 / 8x8dct=1 / cqm=0 / deadzone=21,11 / fast_pskip=0 / chroma_qp_offset=-2 / threads=24 / lookahead_threads=2 / sliced_threads=0 / nr=0 / decimate=1 / interlaced=0 / bluray_compat=0 / constrained_intra=0 / bframes=3 / b_pyramid=2 / b_adapt=2 / b_bias=0 / direct=3 / weightb=1 / open_gop=0 / weightp=2 / keyint=250 / keyint_min=23 / scenecut=40 / intra_refresh=0 / rc_lookahead=60 / rc=crf / mbtree=1 / crf=19.0 / qcomp=0.60 / qpmin=0 / qpmax=69 / qpstep=4 / ip_ratio=1.40 / aq=1:1.00
Language : English
Default : Yes
Forced : No
Color range : Limited
Matrix coefficients : BT.709

Audio
ID : 2
Format : AAC
Format/Info : Advanced Audio Codec
Format profile : LC
Codec ID : A_AAC
Duration : 42mn 31s
Bit rate : 120 Kbps
Channel(s) : 2 channels
Channel positions : Front: L R
Sampling rate : 48.0 KHz
Frame rate : 46.875 fps (1024 spf)
Compression mode : Lossy
Delay relative to video : 9ms
Stream size : 36.4 MiB (13%)
Default : Yes
Forced : No

Related Torrents

torrent name size files age seed leech

Sharing Widget


Download torrent
286.43 MB
seeders:11
leechers:7
Containment S01E09 HDTV x264-LOL[rartv]



To share this torrent use the code below and insert it into comments, status messages, forum posts or your signature.

Torrent: Containment S01E09 HDTV x264-LOL[rartv]

Trackers

tracker name
udp://tracker.openbittorrent.com:80/announce
udp://tracker.publicbt.com:80/announce
udp://tracker.coppersurfer.tk:6969/announce
udp://9.rarbg.me:2710/announce
udp://p4p.arenabg.com:1337/announce
http://tracker.trackerfix.com/announce
udp://9.rarbg.to:2710/announce
udp://tracker.opentrackr.org:1337/announce
µTorrent compatible trackers list

Locations

name
KickassTorrents
Torrent hash: 405A53DF436272FD8C11991DEDA2EAECBF3C89B7

All Comments

audio
9/10
video
9/10
please, leave only comments related to that torrent
Sign In

User Opinions

sacot99.53K, Deathcom31313.93K, Maxx10110.36K, BesterH7872, hatchdaddy637132, Stunned5583, PStorm3706, freakshowtogo3040, smartone1185, datette1028 ... And 24 more
Report a bug Open chat