Containment S01E09 1080p WEB-DL DD5 1 H264-RARBG

seeders: 14
leechers: 8
updated:
Added by z0n3212.58M in TV
Torrent verified. Downloaded 2,492 times.

DownloadFast Safe Anonymous
movies, software, shows...
  • View all Containment episodes
  • Episode title: A Kingdom Divided Against Itself
  • Episode: S01E09
  • Air date: 21 June 2016
  • IMDb link: 4421578
  • TVmaze link: Containment
  • Original run: 01 January 2016 — Present
  • Summary:

    The series follows an epidemic that breaks out in Atlanta, leaving the large city quarantined and those stuck on the inside fighting for their lives. The drama tells the story of loved ones torn apart, and how the society that grows inside the cordon reveals both the devolution of humanity and the birth of unlikely heroes.

    Written by Rocky_45122.35K
Available in versions: 1080p720p480pHDTVWEBRipx264x265
Containment S01E09 1080p WEB-DL DD5 1 H264-RARBG (Size: 1.59 GB)
  Containment.S01E09.1080p.WEB-DL.DD5.1.H264-RARBG.mkv 1.59 GB
  Containment.S01E09.1080p.WEB-DL.DD5.1.H264-RARBG.srt 63.69 KB
  rarbg.com.txt 34 bytes

Description


http://rarbg.to
Containment.S01E09.1080p.WEB-DL.DD5.1.H264-RARBG

image
Screens :

image
Mediainfo :

Video
ID : 1
Format : AVC
Format/Info : Advanced Video Codec
Format profile : [email protected]
Format settings, CABAC : Yes
Format settings, ReFrames : 4 frames
Codec ID : V_MPEG4/ISO/AVC
Duration : 42mn 31s
Bit rate : 4 874 Kbps
Width : 1 916 pixels
Height : 1 076 pixels
Display aspect ratio : 16:9
Frame rate mode : Constant
Frame rate : 23.976 fps
Color space : YUV
Chroma subsampling : 4:2:0
Bit depth : 8 bits
Scan type : Progressive
Bits/(Pixel*Frame) : 0.099
Stream size : 1.45 GiB (91%)
Title : Containment.S01E09.1080p.WEB-DL.DD5.1.H264-RARBG
Language : English
Default : Yes
Forced : No
Color range : Limited
Color primaries : BT.709
Transfer characteristics : BT.709
Matrix coefficients : BT.709

Audio
ID : 2
Format : AC-3
Format/Info : Audio Coding 3
Mode extension : CM (complete main)
Format settings, Endianness : Big
Codec ID : A_AC3
Duration : 42mn 31s
Bit rate mode : Constant
Bit rate : 384 Kbps
Channel(s) : 6 channels
Channel positions : Front: L C R, Side: L R, LFE
Sampling rate : 48.0 KHz
Frame rate : 31.250 fps (1536 spf)
Compression mode : Lossy
Stream size : 117 MiB (7%)
Title : Containment.S01E09.1080p.WEB-DL.DD5.1.H264-RARBG
Language : English
Default : Yes
Forced : No

Text
ID : 3
Format : UTF-8
Codec ID : S_TEXT/UTF8
Codec ID/Info : UTF-8 Plain Text
Default : Yes
Forced : No

Related Torrents

torrent name size files age seed leech

Sharing Widget


Download torrent
1.59 GB
seeders:16
leechers:6
Containment S01E09 1080p WEB-DL DD5 1 H264-RARBG



To share this torrent use the code below and insert it into comments, status messages, forum posts or your signature.

Torrent: Containment S01E09 1080p WEB-DL DD5 1 H264-RARBG

Trackers

tracker name
udp://tracker.openbittorrent.com:80/announce
udp://tracker.publicbt.com:80/announce
udp://tracker.coppersurfer.tk:6969/announce
udp://9.rarbg.me:2710/announce
udp://p4p.arenabg.com:1337/announce
http://tracker.trackerfix.com/announce
udp://9.rarbg.to:2710/announce
udp://tracker.opentrackr.org:1337/announce
µTorrent compatible trackers list

Locations

name
KickassTorrents
Torrent hash: 4507C83BA886399185263EB2806A24A79F41375E

All Comments

audio
10/10
video
10/10
please, leave only comments related to that torrent
Sign In

fits nicely in cw network's neo-nazi agenda.
audio: 10video: 10
#Ace #Awesome 10+++++ z0n3212.58M Thank-you!

User Opinions

Condo.Ghost98.93K, aliadeeb915200, patchino3251, ciaramama2551, Obey2531, efthlouk1838, 300118871266, budzilla11362, maxsimiljone313, torrentador40 ... And 3 more
Report a bug Open chat